*
40 บุคคลทั่วไป, 0 สมาชิก


https://blackload.net/forum/index.php?topic=7812.0 https://blackload.net/forum/index.php?topic=7812.0

ผู้เขียน หัวข้อ: [ฝรั่ง]-[* Mini 1080p + 720p *] THE PACIFIC (2010) COMPLETE EP. 1-10 : เดอะ แปซิฟิก สมรภูมินรก [BluRay.x264-FD-][เสียงอังกฤษ DTS 5.1 /Sub ENG] -[เสียงไทย AAC 2.0/Sub ENG]-Blu-ray.DTS.1080p+720p. [Modified]-[พากย์ไทย]  (อ่าน 39 ครั้ง)

BlackLoad

  • Administrator
  • Hero Member
  • *****
  • กระทู้: 5752
    • ดูรายละเอียด
[ฝรั่ง]-[* Mini 1080p + 720p *]  THE PACIFIC (2010) COMPLETE EP. 1-10 : เดอะ แปซิฟิก สมรภูมินรก  [BluRay.x264-FD-][เสียงอังกฤษ DTS 5.1 /Sub ENG] -[เสียงไทย AAC 2.0/Sub ENG]-Blu-ray.DTS.1080p+720p. [Modified]-[พากย์ไทย]




เรื่องย่อ The Pacific เดอะ แปซิฟิก สมรภูมิวีรบุรุษ
THE PACIFIC บอกเล่าเรื่องราวอย่างกล้าหาญและสมจริง จากการต่อสู้ของนาวิกโยธินสหรัฐฯสามนายที่เกี่ยวโยงประสานกัน ได้แก่ โรเบิร์ต เลคกี (เจมส์ แบดจ์ เดล) ยูยีน สเล็ดจ์ (โจ มัซเซลโล) และจอห์น บาซิโลน (จอน เซดา) บนผืนทะเลอันไพศาลที่เป็นสมรภูมิแปซิฟิกในสงครามโลกครั้งที่สอง ประสบการณ์เหนือคำบรรยายของพวกเขาและเพื่อนนาวิกโยธิน เริ่มต้นจากการปะทะกับทหารญี่ปุ่นเป็นครั้งแรกในป่าทึบแห่งกัวดาลคานัล ผ่านป่าลึกในเคปโกลสเตอร์ ไปจนถึงที่มั่นแนวปะการังเปเลลู ชายหาดสีเลือดแห่งอิโวจิมา ลานสังหารในโอกินาวา และเส้นทางกลับบ้านพร้อมกับชัยชนะและอุปสรรคนานัปการหลังจากวันที่มีชัยชนะเหนือญี่ปุ่น..



ตัวอย่าง INFO
โค๊ด: [Select]
Format                                   : Matroska
Format version                           : Version 4 / Version 2
File size                                : 3.99 GiB
Duration                                 : 52 min 4 s
Overall bit rate                         : 11.0 Mb/s
Encoded date                             : UTC 2017-08-10 15:13:35
Writing application                      : mkvmerge v9.9.0 ('Pick Up') 64bit
Writing library                          : libebml v1.3.4 + libmatroska v1.4.5

Video
ID                                       : 1
Format                                   : AVC
Format/Info                              : Advanced Video Codec
Format profile                           : High@L4.1
Format settings, CABAC                   : Yes
Format settings, RefFrames               : 4 frames
Codec ID                                 : V_MPEG4/ISO/AVC
Duration                                 : 52 min 4 s
Bit rate                                 : 9 365 kb/s
Width                                    : 1 920 pixels
Height                                   : 1 080 pixels
Display aspect ratio                     : 16:9
Frame rate mode                          : Variable
Frame rate                               : 23.887 FPS
Original frame rate                      : 23.976 FPS
Color space                              : YUV
Chroma subsampling                       : 4:2:0
Bit depth                                : 8 bits
Scan type                                : Progressive
Bits/(Pixel*Frame)                       : 0.189
Stream size                              : 3.41 GiB (85%)
Default                                  : Yes
Forced                                   : No

Audio #1
ID                                       : 2
Format                                   : AAC
Format/Info                              : Advanced Audio Codec
Format profile                           : LC
Codec ID                                 : A_AAC
Duration                                 : 52 min 4 s
Bit rate                                 : 96.0 kb/s
Channel(s)                               : 2 channels
Channel positions                        : Front: L R
Sampling rate                            : 44.1 kHz
Frame rate                               : 43.066 FPS (1024 SPF)
Compression mode                         : Lossy
Stream size                              : 35.6 MiB (1%)
Language                                 : Thai
Default                                  : Yes
Forced                                   : No

Audio #2
ID                                       : 3
Format                                   : DTS
Format/Info                              : Digital Theater Systems
Mode                                     : 16
Format settings, Endianness              : Big
Codec ID                                 : A_DTS
Duration                                 : 52 min 4 s
Bit rate mode                            : Constant
Bit rate                                 : 1 509 kb/s
Channel(s)                               : 6 channels
Channel positions                        : Front: L C R, Side: L R, LFE
Sampling rate                            : 48.0 kHz
Frame rate                               : 93.750 FPS (512 SPF)
Bit depth                                : 24 bits
Compression mode                         : Lossy
Stream size                              : 560 MiB (14%)
Language                                 : English
Default                                  : No
Forced                                   : No

Text #1
ID                                       : 4
Format                                   : SSA
Codec ID                                 : S_TEXT/SSA
Codec ID/Info                            : Sub Station Alpha
Duration                                 : 45 min 29 s
Bit rate                                 : 168 b/s
Count of elements                        : 492
Compression mode                         : Lossless
Stream size                              : 56.1 KiB (0%)
Language                                 : Thai
Default                                  : Yes
Forced                                   : No

Text #2
ID                                       : 5
Format                                   : UTF-8
Codec ID                                 : S_TEXT/UTF8
Codec ID/Info                            : UTF-8 Plain Text
Duration                                 : 47 min 35 s
Bit rate                                 : 47 b/s
Count of elements                        : 541
Stream size                              : 16.5 KiB (0%)
Language                                 : English
Default                                  : No
Forced                                   : No








ดาวน์โหลด
FiLECONDO
.................................



CORNFILE
1080p
THE PACIFIC –EP. 01 GuadalcanalLeckie.mkv - 4.0 GB
THE PACIFIC –EP. 02 Basilone.mkv - 4.0 GB
THE PACIFIC –EP. 03 Melbourne.mkv - 4.0 GB
THE PACIFIC –EP. 04 GloucesterPavuvuBanika.mkv - 4.0 GB
THE PACIFIC –EP. 05 Peleliu Landing.mkv - 4.0 GB
THE PACIFIC –EP. 06 Peleliu Airfield.mkv - 4.0 GB
THE PACIFIC –EP. 07 Peleliu Hills.mkv - 4.0 GB
THE PACIFIC –EP. 08 Iwo Jima.mkv - 4.0 GB
THE PACIFIC –EP. 09 Okinawa.mkv - 4.0 GB
THE PACIFIC –EP. 10 Home.mkv - 4.4 GB

720p
The Pacific 2010 720p Part 1 [Guadalcanal,Leckie] @FREEDAY@.mkv - 2.7 GB
The Pacific 2010 720p Part 2 [Basilone] @FREEDAY@.mkv - 2.7 GB
The Pacific 2010 720p Part 3 [Melbourne] @FREEDAY@.mkv - 2.7 GB
The Pacific 2010 720p Part 4 [Gloucester,Pavuvu,Banika] @FREEDAY@.mkv - 2.7 GB
The Pacific 2010 720p Part 5 [Peleliu Landing] @FREEDAY@.mkv - 2.7 GB
The Pacific 2010 720p Part 6 [Peleliu Airfield] @FREEDAY@.mkv - 2.7 GB
The Pacific 2010 720p Part 7 [Peleliu Hills] @FREEDAY@.mkv - 2.7 GB
The Pacific 2010 720p Part 8 [Iwo Jima] @FREEDAY@.mkv - 2.7 GB
The Pacific 2010 720p Part 9 [Okinawa] @FREEDAY@.mkv - 2.7 GB
The Pacific 2010 720p Part 10 [Home] @FREEDAY@.mkv - 2.7 GB


« แก้ไขครั้งสุดท้าย: 11 สิงหาคม 2017 @13:26:45 น. by BlackLoad »

 



https://blackload.net/forum/index.php?topic=7812.0 https://blackload.net/forum/index.php?topic=7812.0