https://www.blggames.com/forum/index.php

ผู้เขียน หัวข้อ: [ฝรั่ง]-ใหม่ร้อนๆ [* ชัด HQ 1080p + เสียงไทย ซับไทย Master *] Guardians of the Galaxy Vol. 2 (2017) : รวมพันธุ์นักสู้พิทักษ์จักรวาล 2 [พากย์ไทย + อังกฤษ DTS][บรรยายไทย-อังกฤษ][เสียงไทย+ซับไทย Master From iTunes]  (อ่าน 90 ครั้ง)

BlackLoad

  • Administrator
  • Hero Member
  • *****
  • กระทู้: 5928
    • ดูรายละเอียด
[ฝรั่ง]-ใหม่ร้อนๆ [* ชัด HQ 1080p + เสียงไทย ซับไทย Master *]  Guardians of the Galaxy Vol. 2 (2017) : รวมพันธุ์นักสู้พิทักษ์จักรวาล 2  [พากย์ไทย + อังกฤษ DTS][บรรยายไทย-อังกฤษ][เสียงไทย+ซับไทย Master From iTunes]




••• ชัด HQ 1080p  •••
ณ ตอนนี้ เสียงไทย-ซับไทยมาสเตอร์ มีแต่  iTunes เท่านั้นค่ะที่ออกมา
*ขอบคุณเสียงไทย-ซับไทยมาสเตอร์ จาก Blackant



“รวมพันธุ์นักสู้พิทักษ์จักรวาล 2” สานต่อการผจญภัยของเหล่าแก๊งค์เกรียนแห่งจักรวาลมาร์เวล เมื่อพวกเขาเดินทางไกลออกไปในจักรวาล ต่อสู้เพื่อรักษาครอบครัวใหม่ที่พวกเขาเพิ่งมีร่วมกัน และไขปริศนาเกี่ยวกับผู้ให้กำเนิดที่แท้จริงของปีเตอร์ ควิลล์
ศัตรูเก่ากลายมาเป็นพันธมิตรใหม่ และเหล่าตัวละครที่แฟนๆชื่นชอบจากคอมิคส์สุดคลาสสิคทจะมาร่วมมือกับเหล่าผู้พิทักษ์จักรวาลสุดเกรียน เพราะจักรวาลภาพยนตร์มาร์เวลได้ขยายออกไปอย่างไม่หยุดยั้ง



โค๊ด: [Select]
Format                                   : Matroska
Format version                           : Version 4 / Version 2
File size                                : 10.0 GiB
Duration                                 : 2 h 15 min
Overall bit rate                         : 10.6 Mb/s
Movie name                               : MODIFY BY MACUT18
Encoded date                             : UTC 2017-08-09 14:22:54
Writing application                      : mkvmerge v9.9.0 ('Pick Up') 64bit
Writing library                          : libebml v1.3.4 + libmatroska v1.4.5

Video
ID                                       : 1
Format                                   : AVC
Format/Info                              : Advanced Video Codec
Format profile                           : High@L4.1
Format settings, CABAC                   : Yes
Format settings, RefFrames               : 5 frames
Codec ID                                 : V_MPEG4/ISO/AVC
Duration                                 : 2 h 15 min
Bit rate                                 : 8 865 kb/s
Width                                    : 1 920 pixels
Height                                   : 808 pixels
Display aspect ratio                     : 2.40:1
Frame rate mode                          : Constant
Frame rate                               : 23.976 FPS
Color space                              : YUV
Chroma subsampling                       : 4:2:0
Bit depth                                : 8 bits
Scan type                                : Progressive
Bits/(Pixel*Frame)                       : 0.238
Stream size                              : 8.41 GiB (84%)
Writing library                          : x264 core 150 r2833 df79067
Encoding settings                        : cabac=1 / ref=5 / deblock=1:0:0 / analyse=0x3:0x133 / me=umh / subme=7 / psy=1 / psy_rd=1.00:0.00 / mixed_ref=1 / me_range=16 / chroma_me=1 / trellis=1 / 8x8dct=1 / cqm=0 / deadzone=21,11 / fast_pskip=0 / chroma_qp_offset=-2 / threads=25 / lookahead_threads=4 / sliced_threads=0 / nr=0 / decimate=1 / interlaced=0 / bluray_compat=0 / constrained_intra=0 / bframes=3 / b_pyramid=2 / b_adapt=1 / b_bias=0 / direct=1 / weightb=1 / open_gop=0 / weightp=2 / keyint=250 / keyint_min=23 / scenecut=40 / intra_refresh=0 / rc_lookahead=40 / rc=2pass / mbtree=1 / bitrate=8865 / ratetol=1.0 / qcomp=0.60 / qpmin=0 / qpmax=69 / qpstep=4 / cplxblur=20.0 / qblur=0.5 / ip_ratio=1.40 / aq=1:1.00
Language                                 : English
Default                                  : Yes
Forced                                   : No

Audio #1
ID                                       : 2
Format                                   : AAC
Format/Info                              : Advanced Audio Codec
Format profile                           : LC
Codec ID                                 : A_AAC
Duration                                 : 2 h 15 min
Bit rate                                 : 126 kb/s
Channel(s)                               : 2 channels
Channel positions                        : Front: L R
Sampling rate                            : 48.0 kHz
Frame rate                               : 46.875 FPS (1024 SPF)
Compression mode                         : Lossy
Delay relative to video                  : 800 ms
Stream size                              : 123 MiB (1%)
Title                                    : Thai AAC 2.0 iTunes MASTER
Language                                 : Thai
Default                                  : Yes
Forced                                   : Yes

Audio #2
ID                                       : 3
Format                                   : DTS
Format/Info                              : Digital Theater Systems
Mode                                     : 16
Format settings, Endianness              : Big
Codec ID                                 : A_DTS
Duration                                 : 2 h 15 min
Bit rate mode                            : Constant
Bit rate                                 : 1 509 kb/s
Channel(s)                               : 6 channels
Channel positions                        : Front: L C R, Side: L R, LFE
Sampling rate                            : 48.0 kHz
Frame rate                               : 93.750 FPS (512 SPF)
Bit depth                                : 24 bits
Compression mode                         : Lossy
Stream size                              : 1.43 GiB (14%)
Language                                 : English
Default                                  : No
Forced                                   : No

Text #1
ID                                       : 4
Format                                   : PGS
Muxing mode                              : zlib
Codec ID                                 : S_HDMV/PGS
Codec ID/Info                            : Picture based subtitle format used on BDs/HD-DVDs
Duration                                 : 2 h 15 min
Bit rate                                 : 17.8 kb/s
Count of elements                        : 3178
Stream size                              : 17.3 MiB (0%)
Title                                    : Thai PGS
Language                                 : Thai
Default                                  : Yes
Forced                                   : No

Text #2
ID                                       : 5
Format                                   : PGS
Muxing mode                              : zlib
Codec ID                                 : S_HDMV/PGS
Codec ID/Info                            : Picture based subtitle format used on BDs/HD-DVDs
Duration                                 : 2 h 15 min
Bit rate                                 : 17.9 kb/s
Count of elements                        : 3178
Stream size                              : 17.4 MiB (0%)
Title                                    : Thai PGS Yellow
Language                                 : Thai
Default                                  : No
Forced                                   : No

Text #3
ID                                       : 6
Format                                   : PGS
Muxing mode                              : zlib
Codec ID                                 : S_HDMV/PGS
Codec ID/Info                            : Picture based subtitle format used on BDs/HD-DVDs
Duration                                 : 2 h 15 min
Bit rate                                 : 17.9 kb/s
Count of elements                        : 3178
Stream size                              : 17.4 MiB (0%)
Title                                    : English PGS
Language                                 : English
Default                                  : No
Forced                                   : No

Menu
00:00:00.000                             : en:00:00:00.000
00:09:56.179                             : en:00:09:56.179
00:15:10.118                             : en:00:15:10.118
00:22:14.083                             : en:00:22:14.083
00:32:33.702                             : en:00:32:33.702
00:36:52.127                             : en:00:36:52.127
00:42:29.172                             : en:00:42:29.172
00:48:03.464                             : en:00:48:03.464
00:53:18.904                             : en:00:53:18.904
00:58:45.939                             : en:00:58:45.939
01:05:52.240                             : en:01:05:52.240
01:11:12.435                             : en:01:11:12.435
01:18:43.594                             : en:01:18:43.594
01:23:55.322                             : en:01:23:55.322
01:30:24.753                             : en:01:30:24.753
01:39:36.179                             : en:01:39:36.179
01:47:06.211                             : en:01:47:06.211
01:54:21.605                             : en:01:54:21.605
01:58:53.710                             : en:01:58:53.710
02:07:13.459                             : en:02:07:13.459







ดาวน์โหลด
http://cornfile.com/54pvgjga76lr

« แก้ไขครั้งสุดท้าย: 10 สิงหาคม 2017 @06:44:17 น. โดย BlackLoad »

 





https://www.blggames.com/forum/index.php