https://www.blggames.com/forum/index.php

ผู้เขียน หัวข้อ: [ฝรั่ง]-[ใหม่!!ภาพชัดไร้ซับฝัง] • [Modified พากย์ไทยโรง 5.1 ชัดระดับมาสเตอร์] • The Mummy (2017) : เดอะ มัมมี่ • [1080p] • [* WEB-DL.DD5.1.H264.ThaiRong5.1 CpT@CtHts *] • [Sound ThaiRong 5.1 + English DD5.1] • [Sub English] • [Modified] • [พากย์ไทยโรง 5.1  (อ่าน 323 ครั้ง)

BlackLoad

  • Administrator
  • Hero Member
  • *****
  • กระทู้: 5928
    • ดูรายละเอียด
[ฝรั่ง]-[ใหม่!!ภาพชัดไร้ซับฝัง] • [Modified พากย์ไทยโรง 5.1 ชัดระดับมาสเตอร์] • The Mummy (2017) : เดอะ มัมมี่ • [1080p] • [* WEB-DL.DD5.1.H264.ThaiRong5.1 CpT@CtHts *] • [Sound ThaiRong 5.1 + English DD5.1] • [Sub English] • [Modified] • [พากย์ไทยโรง 5.1]





ปฐมบทแห่ง Dark Universe (จักรวาฬทมิฬ)
••• 1080p WEB-DL.DD5.1.H264.ThaiRong5.1_CpT@CtHts •••
พากย์ไทยโรง 5.1 + เสียงอังกฤษ DD5.1 + บรรยายอังกฤษ



The Mummy 2017 นิค มอร์ตัน (Tom Cruise) นายทหารรับจ้างขโมยของโบราณไปขายตลาดมืด บังเอิญไปพบกับโลงศพหินโบราณของ “อามาเนต์” (Sofia Boutella) ว่าที่ฟาโรต์ที่ถูกทำให้เป็นมัมมี่ทั้งเป็น หลังสังหารฟาโรห์ผู้เป็นบิดา ราชินี และน้องชาย นิคร่วมมือกับเจนนี ฮัลซี่ (Annabelle Wallis) นักโบราณคดีสาว ช่วยกันนำโลงศพของ “อามาเนต์” ออกจากทะเลทรายในอิรักไปที่อังกฤษ แต่ด้วยพลังอำนาจและความเคียดแค้นร่วม 5 พันปีของ “อามาเนต์” ทำให้เครื่องบินลำเลียงโลงมัมมี่ตก ทุกคนบนเครื่องบินเสียชีวิตทั้งหมด เว้นแต่เจนนีที่ได้รับการช่วยเหลือจากนิคก่อนเครื่องตก ส่วนนิค มอร์ตัน ถูกชุบชีวิตขึ้นมาพร้อมกับญาณทิพย์ที่เชื่อมต่อกับอามาเนต์ได้ เพราะเขาคือผู้ที่อามาเนต์เลือกให้เป็นกายหยาบของ เซธ เทพแห่งความตาย ที่ต้องการทำลายล้างโลก นิคจะรอดพ้นเงื้อมมือของอสูรพันปีนี้หรือไม่



โค๊ด: [Select]
Format                      : Matroska
File size                   : 4.22 GiB
Duration                    : 1 h 50 min
Overall bit rate            : 5 485 kb/s
Movie name                  : The.Mummy.2017.1080p.WEB-DL.DD5.1.H264.ThaiRong5.1_CpT@CtHts

Video
ID                          : 1
Format                      : AVC
Format/Info                 : Advanced Video Codec
Format profile              : High@L4
Format settings, CABAC      : Yes
Format settings, RefFrames  : 5 frames
Muxing mode                 : Header stripping
Codec ID                    : V_MPEG4/ISO/AVC
Duration                    : 1 h 50 min
Bit rate                    : 4 544 kb/s
Width                       : 1 916 pixels
Height                      : 792 pixels
Display aspect ratio        : 2.40:1
Frame rate mode             : Constant
Frame rate                  : 23.976 FPS
Color space                 : YUV
Chroma subsampling          : 4:2:0
Bit depth                   : 8 bits
Scan type                   : Progressive
Bits/(Pixel*Frame)          : 0.125
Stream size                 : 3.49 GiB (83%)
Title                       : The.Mummy.2017.1080p.WEB-DL.DD5.1.H264.ThaiRong5.1_CpT@CtHts
Language                    : English
Default                     : Yes
Forced                      : No
Color range                 : Limited
Color primaries             : BT.709
Transfer characteristics    : BT.709
Matrix coefficients         : BT.709

Audio #1
ID                          : 2
Format                      : AC-3
Format/Info                 : Audio Coding 3
Format settings, Endianness : Big
Muxing mode                 : Header stripping
Codec ID                    : A_AC3
Duration                    : 1 h 50 min
Bit rate mode               : Constant
Bit rate                    : 384 kb/s
Channel(s)                  : 6 channels
Channel positions           : Front: L C R, Side: L R, LFE
Sampling rate               : 48.0 kHz
Frame rate                  : 31.250 FPS (1536 SPF)
Bit depth                   : 16 bits
Compression mode            : Lossy
Stream size                 : 302 MiB (7%)
Title                       : English DD5.1 (AC-3)
Language                    : English
Service kind                : Complete Main
Default                     : No
Forced                      : No

Audio #2
ID                          : 3
Format                      : AC-3
Format/Info                 : Audio Coding 3
Format settings, Endianness : Big
Muxing mode                 : Header stripping
Codec ID                    : A_AC3
Duration                    : 1 h 50 min
Bit rate mode               : Constant
Bit rate                    : 448 kb/s
Channel(s)                  : 6 channels
Channel positions           : Front: L C R, Side: L R, LFE
Sampling rate               : 48.0 kHz
Frame rate                  : 31.250 FPS (1536 SPF)
Bit depth                   : 16 bits
Compression mode            : Lossy
Stream size                 : 353 MiB (8%)
Title                       : ThaiRong 5.1 (AC-3) By ~Mr.Captain~
Language                    : Thai
Service kind                : Complete Main
Default                     : Yes
Forced                      : Yes

Text #1
ID                          : 4
Format                      : PGS
Codec ID                    : S_HDMV/PGS
Codec ID/Info               : Picture based subtitle format used on BDs/HD-DVDs
Title                       : English PGS
Language                    : English
Default                     : No
Forced                      : No

Text #2
ID                          : 5
Format                      : VobSub
Codec ID                    : S_VOBSUB
Codec ID/Info               : Picture based subtitle format used on DVDs
Title                       : English 1080p
Language                    : English
Default                     : Yes
Forced                      : Yes

Menu
00:00:00.000                : en:1
00:08:19.708                : en:2
00:13:19.924                : en:3
00:19:32.463                : en:4
00:24:41.146                : en:5
00:28:55.108                : en:6
00:35:42.390                : en:7
00:39:37.041                : en:8
00:47:01.068                : en:9
00:50:58.638                : en:10
00:56:50.740                : en:11
01:00:44.849                : en:12
01:08:59.009                : en:13
01:16:04.851                : en:14
01:19:39.440                : en:15
01:23:17.407                : en:16
01:26:27.847                : en:17
01:33:35.941                : en:18
01:37:03.982                : en:19
01:39:48.980                : en:20









ดาวน์โหลด
http://cornfile.com/w2z16vwozw54


 





https://www.blggames.com/forum/index.php