https://www.blggames.com/forum/index.php

ผู้เขียน หัวข้อ: [ฝรั่ง]-[ใหม่!!ร้อนจากโรง] • [ซูมชัดแจ๋ว!] • It (2017) : อิท โผล่จากนรก • [* HD-TS.x264.ThaIRong2.0 *] • [พากย์ไทยโรง 2.0 + เสียงอังกฤษ 2.0] • [หนังซูม]  (อ่าน 131 ครั้ง)

BlackLoad

  • Administrator
  • Hero Member
  • *****
  • กระทู้: 5928
    • ดูรายละเอียด
[ฝรั่ง]-[ใหม่!!ร้อนจากโรง] • [ซูมชัดแจ๋ว!] • It (2017) : อิท โผล่จากนรก • [* HD-TS.x264.ThaIRong2.0 *] • [พากย์ไทยโรง 2.0 + เสียงอังกฤษ 2.0] • [หนังซูม]




จากจุดเริ่มต้นของนิยายระดับตำนาน สู่การก้าวมาเป็นหนังสยองขวัญกระแสแรงที่สุดของปี 2017
เมื่อชมรมคนขี้แพ้ ช่วยกันกำจัดความกลัวที่เกาะกินหัวใจเเล้วฮึดสู้กับอสูรกาย "เพนนี่ ไวซ์"!

••• HD-TS.x264.ThaIRong2.0_CpT@CtHts •••
พากย์ไทยโรง 2.0 + เสียงอังกฤษ 2.0



It (2017) ภาพยนตร์แนวทริลเลอร์สยองขวัญ ผลงานจากนิวไลน์ ซีเนม่า เรื่อง “IT” กำกับฯ โดย อันเดรส มูเชตติ (“Mama”) สร้างขึ้นจากนิยายที่ได้รับความนิยมอย่างสูง ผลงานของสตีเฟน คิง ในชื่อเดียวกันซึ่งสร้างความสยองขวัญให้กับผู้อ่านมานานหลายทศวรรษ เมื่อเด็กๆ เริ่มหายตัวไปจากเมืองเดอร์รี่ รัฐเมน เด็กๆ กลุ่มหนึ่งต้องเผชิญกับความกลัวครั้งใหญ่เมื่อพวกเขาต้องพบกับตัวตลกร้ายที่ชื่อว่าเพนนีไวซ์ ซึ่งมีประวัติฆาตกรรมและใช้ความรุนแรงมาอย่างโชกโชนเมื่อหลายศตวรรษก่อน



โค๊ด: [Select]
Format                      : Matroska
File size                   : 2.23 GiB
Duration                    : 2 h 8 min
Overall bit rate            : 2 485 kb/s
Movie name                  : IT.2017.HD-TS.x264.ThaIRong2.0_CpT@CtHts
Video
ID                          : 1
Format                      : AVC
Format/Info                 : Advanced Video Codec
Format profile              : High@L4.2
Format settings, CABAC      : Yes
Format settings, RefFrames  : 6 frames
Codec ID                    : V_MPEG4/ISO/AVC
Duration                    : 2 h 8 min
Bit rate mode               : Variable
Bit rate                    : 2 100 kb/s
Maximum bit rate            : 62.5 Mb/s
Width                       : 720 pixels
Height                      : 320 pixels
Display aspect ratio        : 2.25:1
Frame rate mode             : Constant
Frame rate                  : 60.000 FPS
Color space                 : YUV
Chroma subsampling          : 4:2:0
Bit depth                   : 8 bits
Scan type                   : Progressive
Bits/(Pixel*Frame)          : 0.152
Stream size                 : 1.88 GiB (84%)
Title                       : IT.2017.HD-TS.x264.ThaIRong2.0_CpT@CtHts
Writing library             : x264 core 148 r2744 b97ae06
Encoding settings           : cabac=1 / ref=7 / deblock=1:0:0 / analyse=0x3:0x133 / me=umh / subme=9 / psy=1 / psy_rd=1.00:0.00 / mixed_ref=1 / me_range=18 / chroma_me=1 / trellis=2 / 8x8dct=1 / cqm=0 / deadzone=21,11 / fast_pskip=0 / chroma_qp_offset=-2 / threads=16 / lookahead_threads=1 / sliced_threads=0 / slices=4 / nr=0 / decimate=1 / interlaced=0 / bluray_compat=0 / constrained_intra=0 / bframes=3 / b_pyramid=1 / b_adapt=2 / b_bias=0 / direct=3 / weightb=1 / open_gop=0 / weightp=2 / keyint=600 / keyint_min=60 / scenecut=40 / intra_refresh=0 / rc_lookahead=50 / rc=abr / mbtree=1 / bitrate=2100 / ratetol=1.0 / qcomp=0.60 / qpmin=10 / qpmax=51 / qpstep=4 / vbv_maxrate=62500 / vbv_bufsize=78125 / nal_hrd=vbr / filler=0 / ip_ratio=1.40 / aq=1:1.00
Language                    : English
Default                     : Yes
Forced                      : No
Color range                 : Limited
Color primaries             : BT.709
Transfer characteristics    : BT.709
Matrix coefficients         : BT.709

Audio #1
ID                          : 2
Format                      : AC-3
Format/Info                 : Audio Coding 3
Format settings, Endianness : Big
Codec ID                    : A_AC3
Duration                    : 2 h 8 min
Bit rate mode               : Constant
Bit rate                    : 192 kb/s
Channel(s)                  : 2 channels
Channel positions           : Front: L R
Sampling rate               : 48.0 kHz
Frame rate                  : 31.250 FPS (1536 SPF)
Bit depth                   : 16 bits
Compression mode            : Lossy
Stream size                 : 177 MiB (8%)
Title                       : ThaIRong 2.0 AC-3 By ~Mr.Captain~
Language                    : Thai
Service kind                : Complete Main
Default                     : No
Forced                      : No

Audio #2
ID                          : 3
Format                      : MPEG Audio
Format version              : Version 1
Format profile              : Layer 3
Codec ID                    : A_MPEG/L3
Codec ID/Hint               : MP3
Duration                    : 2 h 8 min
Bit rate mode               : Constant
Bit rate                    : 192 kb/s
Channel(s)                  : 2 channels
Sampling rate               : 44.1 kHz
Frame rate                  : 38.281 FPS (1152 SPF)
Compression mode            : Lossy
Stream size                 : 177 MiB (8%)
Title                       : English 2.0 MP3
Writing library             : LAME3.99.5
Language                    : English
Default                     : Yes
Forced                      : No










ดาวน์โหลด


http://www.mekafile.com/dl.php?f=Mx251ebvjrov
« แก้ไขครั้งสุดท้าย: 19 กันยายน 2017 @07:50:08 น. โดย BlackLoad »

 





https://www.blggames.com/forum/index.php