https://www.blggames.com/forum/index.php

ผู้เขียน หัวข้อ: [ฝรั่ง]-ใหม่!! ภาพชัดระดับมาสเตอร์ [* WEB-DL 1080p เสียงไทยโรง 5.1 ชัดแจ่มแมว *] Transformers: The Last Knight (2017) : ทรานส์ฟอร์เมอร์ส 5 อัศวินรุ่นสุดท้าย • [* WEB-DL.ThaiRong5.1.H264 *] • [พากย์ไทยโรง 5.1 AC-3 / AAC + เสียงอังกฤษ DD5.1] • [บรรยายอังกฤ  (อ่าน 683 ครั้ง)

BlackLoad

  • Administrator
  • Hero Member
  • *****
  • กระทู้: 5928
    • ดูรายละเอียด
[ฝรั่ง]-ใหม่!! ภาพชัดระดับมาสเตอร์ [* WEB-DL 1080p เสียงไทยโรง 5.1 ชัดแจ่มแมว *]  Transformers: The Last Knight (2017) : ทรานส์ฟอร์เมอร์ส 5 อัศวินรุ่นสุดท้าย • [* WEB-DL.ThaiRong5.1.H264 *] • [พากย์ไทยโรง 5.1 AC-3 / AAC + เสียงอังกฤษ DD5.1] • [บรรยายอังกฤษ] • [พากย์ไทยโรง]






ภาพยนตร์จักรกลถล่มโลกเรื่องที่ 5 ของ ไมเคิล เบย์
สัมผัสที่สุดของประสบการณ์ความมัน เมื่อสองโลกเข้าห้ำหั่นมีเพียงหนึ่งที่รอด TRANSFORMERS: The Last Knight อัศวินรุ่นสุดท้าย!
••• .1080p.WEB-DL.ThaiRong5.1.H264_CpT@CtHts •••
ภาพชัด 1080P
&
พากย์ไทยโรง 5.1 AC-3/AAC ชัดแจ่ม + เสียงอังกฤษ DD5.1 + บรรยายอังกฤษ



Transformers:  The Last Knight อัศวินรุ่นสุดท้าย แตกเรื่องจากแก่นเรื่องหลักของแฟรนไชส์ทรานฟอร์เมอร์ส และให้คำจำกัดความวีรบุรุษใหม่ มนุษย์และทรานส์ฟอร์เมอร์ส์อยู่ในสงคราม ออพติมัสจากไป การปกป้องอนาคตของพวกเราขึ้นอยู่กับความลับในอดีต ที่ซ่อนอยู่ในประวัติศาสตร์ทรานส์ฟอร์เมอร์สบนโลกใบนี้ การพิทักษ์โลกของเราตกอยู่ในกำมือของพันธมิตรอย่าง เคด เยเกอร์ (มาร์ค วอห์ลเบิร์ก) บัมเบิ้ลบี และขุนนางอังกฤษ (เซอร์ แอนโธนี ฮ็อปกินส์) และ ศาสตราจารย์จากอ็อกซ์ฟอร์ด (ลอร่า แฮดด็อก)

ในชีวิตของทุกคนมีช่วงเวลาที่เราต้องการทำอะไรที่แตกต่างให้เกิดความเปลี่ยนแปลง ในทรานส์ฟอร์เมอร์ส 5: อัศวินรุ่นสุดท้าย ผู้ถูกล่ากลายมาเป็นวีรบุรุษ วีรบุรุษกลายเป็นศํตรู มีเพียงโลกเดียวที่จะอยู่รอด: โลกของพวกเขา หรือโลกของเรา


โค๊ด: [Select]
Format                      : Matroska
File size                   : 6.89 GiB
Duration                    : 2 h 34 min
Overall bit rate            : 6 377 kb/s
Movie name                  : Transformers.The.Last.Knight.2017.1080p.WEB-DL.ThaiRong5.1.H264_CpT@CtHts

Video
ID                          : 1
Format                      : AVC
Format/Info                 : Advanced Video Codec
Format profile              : High@L4
Format settings, CABAC      : Yes
Format settings, RefFrames  : 4 frames
Codec ID                    : V_MPEG4/ISO/AVC
Duration                    : 2 h 34 min
Bit rate                    : 5 111 kb/s
Width                       : 1 920 pixels
Height                      : 1 010 pixels
Display aspect ratio        : 1.901
Frame rate mode             : Constant
Frame rate                  : 23.976 (24000/1001) FPS
Color space                 : YUV
Chroma subsampling          : 4:2:0
Bit depth                   : 8 bits
Scan type                   : Progressive
Bits/(Pixel*Frame)          : 0.110
Stream size                 : 5.52 GiB (80%)
Title                       : Transformers.The.Last.Knight.2017.1080p.WEB-DL.ThaiRong5.1.H264_CpT@CtHts
Language                    : English
Default                     : Yes
Forced                      : No
Color range                 : Limited
Color primaries             : BT.709
Transfer characteristics    : BT.709
Matrix coefficients         : BT.709

Audio #1
ID                          : 2
Format                      : AC-3
Format/Info                 : Audio Coding 3
Format settings, Endianness : Big
Codec ID                    : A_AC3
Duration                    : 2 h 34 min
Bit rate mode               : Constant
Bit rate                    : 448 kb/s
Channel(s)                  : 6 channels
Channel positions           : Front: L C R, Side: L R, LFE
Sampling rate               : 48.0 kHz
Frame rate                  : 31.250 FPS (1536 SPF)
Bit depth                   : 16 bits
Compression mode            : Lossy
Delay relative to video     : -43 ms
Stream size                 : 496 MiB (7%)
Title                       : AC-3 ThaiRong 5.1 By ~Mr.Captain~
Language                    : Thai
Service kind                : Complete Main
Default                     : Yes
Forced                      : No

Audio #2
ID                          : 3
Format                      : AAC
Format/Info                 : Advanced Audio Codec
Format profile              : LC
Codec ID                    : A_AAC
Duration                    : 2 h 34 min
Bit rate                    : 432 kb/s
Channel(s)                  : 6 channels
Channel positions           : Front: L C R, Side: L R, LFE
Sampling rate               : 48.0 kHz
Frame rate                  : 46.875 FPS (1024 SPF)
Compression mode            : Lossy
Delay relative to video     : -43 ms
Stream size                 : 478 MiB (7%)
Title                       : AAC ThaiRong 5.1 By ~Mr.Captain~
Language                    : Thai
Default                     : No
Forced                      : No

Audio #3
ID                          : 4
Format                      : AC-3
Format/Info                 : Audio Coding 3
Format settings, Endianness : Big
Codec ID                    : A_AC3
Duration                    : 2 h 34 min
Bit rate mode               : Constant
Bit rate                    : 384 kb/s
Channel(s)                  : 6 channels
Channel positions           : Front: L C R, Side: L R, LFE
Sampling rate               : 48.0 kHz
Frame rate                  : 31.250 FPS (1536 SPF)
Bit depth                   : 16 bits
Compression mode            : Lossy
Delay relative to video     : -43 ms
Stream size                 : 424 MiB (6%)
Title                       : AC-3 English DD5.1
Language                    : English
Service kind                : Complete Main
Default                     : No
Forced                      : No

Text
ID                          : 5
Format                      : UTF-8
Codec ID                    : S_TEXT/UTF8
Codec ID/Info               : UTF-8 Plain Text
Duration                    : 2 h 24 min
Bit rate                    : 66 b/s
Count of elements           : 2216
Stream size                 : 70.5 KiB (0%)
Title                       : English
Language                    : English
Default                     : Yes
Forced                      : No

Menu
00:00:00.000                : en:1
00:06:34.000                : en:2
00:14:01.000                : en:3
00:21:43.000                : en:4
00:27:50.000                : en:5
00:33:36.000                : en:6
00:39:58.000                : en:7
00:46:48.000                : en:8
00:53:14.000                : en:9
01:01:51.000                : en:10
01:08:35.000                : en:11
01:14:25.000                : en:12
01:19:57.000                : en:13
01:29:00.000                : en:14
01:37:45.000                : en:15
01:44:43.000                : en:16
01:51:01.000                : en:17
01:57:44.000                : en:18
02:05:54.000                : en:19
02:10:38.000                : en:20
02:15:45.000                : en:21
02:21:26.000                : en:22
02:25:00.000                : en:23












ดาวน์โหลด


http://www.mekafile.com/dl.php?f=w62eb4bv8hcR

 





https://www.blggames.com/forum/index.php