https://www.blggames.com/forum/index.php

ผู้เขียน หัวข้อ: [ฝรั่ง]-[ใหม่!ร้อนๆ] • [* 1080p ภาพชัดจากเกาหลี *] • Transformers: The Last Knight (2017) : ทรานส์ฟอร์เมอร์ส 5 อัศวินรุ่นสุดท้าย • [* KORSUB.HDRip.x264.ThaIRong2.0 *] • [พากย์ไทยโรง 2.0 AC-3 / AAC + เสียงอังกฤษ 2.0 + บรรยายเกาหลีฝัง] • [Modified] • [พากย์  (อ่าน 201 ครั้ง)

BlackLoad

  • Administrator
  • Hero Member
  • *****
  • กระทู้: 5928
    • ดูรายละเอียด
[ฝรั่ง]-[ใหม่!ร้อนๆ] • [* 1080p ภาพชัดจากเกาหลี *] • Transformers: The Last Knight (2017) : ทรานส์ฟอร์เมอร์ส 5 อัศวินรุ่นสุดท้าย • [* KORSUB.HDRip.x264.ThaIRong2.0 *] • [พากย์ไทยโรง 2.0 AC-3 / AAC + เสียงอังกฤษ 2.0 + บรรยายเกาหลีฝัง] • [Modified] • [พากย์ไทยโรง]






ภาพยนตร์จักรกลถล่มโลกเรื่องที่ 5 ของ ไมเคิล เบย์
สัมผัสที่สุดของประสบการณ์ความมัน เมื่อสองโลกเข้าห้ำหั่นมีเพียงหนึ่งที่รอด TRANSFORMERS: The Last Knight อัศวินรุ่นสุดท้าย!
••• 1080p.KORSUB.HDRip.x264.ThaIRong2.0_CpT@CtHts •••
พากย์ไทยโรง 2.0 AC-3 / AAC + เสียงอังกฤษ 2.0 + บรรยายเกาหลีฝัง



Transformers:  The Last Knight อัศวินรุ่นสุดท้าย แตกเรื่องจากแก่นเรื่องหลักของแฟรนไชส์ทรานฟอร์เมอร์ส และให้คำจำกัดความวีรบุรุษใหม่ มนุษย์และทรานส์ฟอร์เมอร์ส์อยู่ในสงคราม ออพติมัสจากไป การปกป้องอนาคตของพวกเราขึ้นอยู่กับความลับในอดีต ที่ซ่อนอยู่ในประวัติศาสตร์ทรานส์ฟอร์เมอร์สบนโลกใบนี้ การพิทักษ์โลกของเราตกอยู่ในกำมือของพันธมิตรอย่าง เคด เยเกอร์ (มาร์ค วอห์ลเบิร์ก) บัมเบิ้ลบี และขุนนางอังกฤษ (เซอร์ แอนโธนี ฮ็อปกินส์) และ ศาสตราจารย์จากอ็อกซ์ฟอร์ด (ลอร่า แฮดด็อก)

ในชีวิตของทุกคนมีช่วงเวลาที่เราต้องการทำอะไรที่แตกต่างให้เกิดความเปลี่ยนแปลง ในทรานส์ฟอร์เมอร์ส 5: อัศวินรุ่นสุดท้าย ผู้ถูกล่ากลายมาเป็นวีรบุรุษ วีรบุรุษกลายเป็นศํตรู มีเพียงโลกเดียวที่จะอยู่รอด: โลกของพวกเขา หรือโลกของเรา


โค๊ด: [Select]
Format                      : Matroska
File size                   : 5.22 GiB
Duration                    : 2 h 26 min
Overall bit rate            : 5 091 kb/s
Movie name                  : Transformers.The.Last.Knight.2017.1080p.KORSUB.HDRip.x264.ThaIRong2.0_CpT@CtHts

Video
ID                          : 1
Format                      : AVC
Format/Info                 : Advanced Video Codec
Format profile              : High@L4.1
Format settings, CABAC      : Yes
Format settings, RefFrames  : 4 frames
Codec ID                    : V_MPEG4/ISO/AVC
Duration                    : 2 h 26 min
Bit rate                    : 4 500 kb/s
Width                       : 1 920 pixels
Height                      : 1 000 pixels
Display aspect ratio        : 1.920
Frame rate mode             : Constant
Frame rate                  : 24.000 FPS
Color space                 : YUV
Chroma subsampling          : 4:2:0
Bit depth                   : 8 bits
Scan type                   : Progressive
Bits/(Pixel*Frame)          : 0.098
Stream size                 : 4.59 GiB (88%)
Title                       : Transformers.The.Last.Knight.2017.1080p.KORSUB.HDRip.x264.ThaIRong2.0_CpT@CtHts
Writing library             : x264 core 152 r2851M ba24899
Encoding settings           : cabac=1 / ref=4 / deblock=1:0:0 / analyse=0x3:0x113 / me=hex / subme=8 / psy=1 / psy_rd=1.00:0.00 / mixed_ref=1 / me_range=16 / chroma_me=1 / trellis=2 / 8x8dct=1 / cqm=0 / deadzone=21,11 / fast_pskip=1 / chroma_qp_offset=-2 / threads=40 / lookahead_threads=6 / sliced_threads=0 / nr=0 / decimate=1 / interlaced=0 / bluray_compat=0 / constrained_intra=0 / bframes=3 / b_pyramid=2 / b_adapt=1 / b_bias=0 / direct=3 / weightb=1 / open_gop=0 / weightp=2 / keyint=250 / keyint_min=24 / scenecut=40 / intra_refresh=0 / rc_lookahead=50 / rc=abr / mbtree=1 / bitrate=4500 / ratetol=1.0 / qcomp=0.60 / qpmin=0 / qpmax=69 / qpstep=4 / ip_ratio=1.40 / aq=1:1.00
Language                    : English
Default                     : Yes
Forced                      : No

Audio #1
ID                          : 2
Format                      : AC-3
Format/Info                 : Audio Coding 3
Format settings, Endianness : Big
Codec ID                    : A_AC3
Duration                    : 2 h 26 min
Bit rate mode               : Constant
Bit rate                    : 192 kb/s
Channel(s)                  : 2 channels
Channel positions           : Front: L R
Sampling rate               : 48.0 kHz
Frame rate                  : 31.250 FPS (1536 SPF)
Bit depth                   : 16 bits
Compression mode            : Lossy
Delay relative to video     : -46 ms
Stream size                 : 202 MiB (4%)
Title                       : AC-3 ThaiRong 2.0 By ~Mr.Captain~
Language                    : Thai
Service kind                : Complete Main
Default                     : Yes
Forced                      : No

Audio #2
ID                          : 3
Format                      : AAC
Format/Info                 : Advanced Audio Codec
Format profile              : Main
Codec ID                    : A_AAC
Duration                    : 2 h 26 min
Bit rate                    : 192 kb/s
Channel(s)                  : 2 channels
Channel positions           : Front: L R
Sampling rate               : 48.0 kHz
Frame rate                  : 46.875 FPS (1024 SPF)
Compression mode            : Lossy
Delay relative to video     : -46 ms
Stream size                 : 202 MiB (4%)
Title                       : AAC ThaiRong 2.0 By ~Mr.Captain~
Language                    : Thai
Default                     : No
Forced                      : No

Audio #3
ID                          : 4
Format                      : AAC
Format/Info                 : Advanced Audio Codec
Format profile              : LC
Codec ID                    : A_AAC
Duration                    : 2 h 26 min
Bit rate                    : 224 kb/s
Channel(s)                  : 2 channels
Channel positions           : Front: L R
Sampling rate               : 44.1 kHz
Frame rate                  : 43.066 FPS (1024 SPF)
Compression mode            : Lossy
Delay relative to video     : -46 ms
Stream size                 : 235 MiB (4%)
Title                       : AAC English 2.0
Language                    : English
Default                     : No
Forced                      : No












ดาวน์โหลด


http://www.mekafile.com/dl.php?f=CRd75fbuTkOv



Transformers.The.Last.Knight.2017.1080p.KORSUB.HDRip.x264.ThaIRong2.0_CpT@CtHts.mkv - 5.2 GB

 





https://www.blggames.com/forum/index.php