https://www.blggames.com/forum/index.php

ผู้เขียน หัวข้อ: [ฝรั่ง]-[ใหม่!!ภาพชัดไร้ซับฝัง] • [* WEB-DL 1080p เสียงไทยโรง 5.1 ชัดแจ่ม *] • Pirates of the Caribbean: Dead Men Tell No Tales (2017) : สงครามแค้นโจรสลัดไร้ชีพ • [* WEB-DL.ThaIRong5.1.H264 *] • [พากย์ไทยโรง 5.1 AC-3 / AAC + เสียงอังกฤษ DD5.1] • [Modified  (อ่าน 210 ครั้ง)

BlackLoad

  • Administrator
  • Hero Member
  • *****
  • กระทู้: 5928
    • ดูรายละเอียด
[ฝรั่ง]-[ใหม่!!ภาพชัดไร้ซับฝัง] • [* WEB-DL 1080p เสียงไทยโรง 5.1 ชัดแจ่ม *] • Pirates of the Caribbean: Dead Men Tell No Tales (2017) : สงครามแค้นโจรสลัดไร้ชีพ • [* WEB-DL.ThaIRong5.1.H264 *] • [พากย์ไทยโรง 5.1 AC-3 / AAC + เสียงอังกฤษ DD5.1] • [Modified] • [พากย์ไทยโรง]






ภาพยนตร์แฟนตาซีเรื่องล่าสุดของ โยคิม รอนนิง และ เอสเพน แซนด์เบิร์ก
แจ๊คต้องตามล่า “ตรีศูลของโพไซดอน” เพื่อล้างคำสาปทั้งหมดบนท้องทะเล!
&
หนังจบอย่างพึ่งลุกออกจากหน้าจอยังมีต่อหลังเอ็นเครติด!

••• 1080p.WEB-DL.ThaIRong5.1.H264_CpT@CtHts •••
พากย์ไทยโรง 5.1 AC-3 / AAC + เสียงอังกฤษ DD5.1



Pirates of the Caribbean: Salazar s Revenge มุ่งหน้าเปิดศึกแห่งมหาสมุทรบทใหม่โดยมี “ตรีศูลของโพไซดอน”
อาวุธสำคัญของเทพแห่งกรีกเป็นศูนย์กลางของเรื่อง ซึ่งใครที่ได้ครอบครองมันจะมีพลานุภาพเหนือทุกสิ่งทุกอย่างใต้ท้องทะเล
กัปตันแจ็ค สแปร์โรว์ต้องเดินทางออกตามหามันเพื่อล้างคำสาปและหนีการตามล่าของกัปตันซาลาซ่า มหาวายร้ายที่หลบหนีจากแดนแห่งความตายกลับมาล้างแค้น
และหมายฆ่ากัปตันเดินเรือทุกคนบนโลก โดยเฉพาะ กัปตัน แจ็ค สแปร์โรว์ ที่มีอดีตบาดหมาง ยากที่จะให้อภัยได้นั่นเอง



โค๊ด: [Select]
Format                      : Matroska
File size                   : 5.19 GiB
Duration                    : 2 h 9 min
Overall bit rate            : 5 754 kb/s
Movie name                  : Pirates.of.the.Caribbean.Dead.Men.Tell.No.Tales.2017.1080p.WEB-DL.ThaIRong5.1.H264_CpT@CtHts

Video
ID                          : 1
Format                      : AVC
Format/Info                 : Advanced Video Codec
Format profile              : High@L4
Format settings, CABAC      : Yes
Format settings, RefFrames  : 5 frames
Codec ID                    : V_MPEG4/ISO/AVC
Duration                    : 2 h 9 min
Bit rate                    : 4 535 kb/s
Width                       : 1 920 pixels
Height                      : 800 pixels
Display aspect ratio        : 2.40:1
Frame rate mode             : Constant
Frame rate                  : 23.976 (24000/1001) FPS
Color space                 : YUV
Chroma subsampling          : 4:2:0
Bit depth                   : 8 bits
Scan type                   : Progressive
Bits/(Pixel*Frame)          : 0.123
Stream size                 : 4.09 GiB (79%)
Title                       : Pirates.of.the.Caribbean.Dead.Men.Tell.No.Tales.2017.1080p.WEB-DL.ThaIRong5.1.H264_CpT@CtHts
Language                    : English
Default                     : Yes
Forced                      : No
Color range                 : Limited
Color primaries             : BT.709
Transfer characteristics    : BT.709
Matrix coefficients         : BT.709

Audio #1
ID                          : 2
Format                      : AC-3
Format/Info                 : Audio Coding 3
Format settings, Endianness : Big
Codec ID                    : A_AC3
Duration                    : 2 h 9 min
Bit rate mode               : Constant
Bit rate                    : 448 kb/s
Channel(s)                  : 6 channels
Channel positions           : Front: L C R, Side: L R, LFE
Sampling rate               : 48.0 kHz
Frame rate                  : 31.250 FPS (1536 SPF)
Bit depth                   : 16 bits
Compression mode            : Lossy
Stream size                 : 414 MiB (8%)
Title                       : AC-3 ThaiRong 5.1 By ~Mr.Captain~
Language                    : Thai
Service kind                : Complete Main
Default                     : Yes
Forced                      : No

Audio #2
ID                          : 3
Format                      : AAC
Format/Info                 : Advanced Audio Codec
Format profile              : Main
Codec ID                    : A_AAC
Duration                    : 2 h 9 min
Bit rate                    : 384 kb/s
Channel(s)                  : 6 channels
Channel positions           : Front: L C R, Side: L R, LFE
Sampling rate               : 48.0 kHz
Frame rate                  : 46.875 FPS (1024 SPF)
Compression mode            : Lossy
Stream size                 : 355 MiB (7%)
Title                       : AAC ThaiRong 5.1 By ~Mr.Captain~
Language                    : Thai
Default                     : No
Forced                      : No

Audio #3
ID                          : 4
Format                      : AC-3
Format/Info                 : Audio Coding 3
Format settings, Endianness : Big
Codec ID                    : A_AC3
Duration                    : 2 h 9 min
Bit rate mode               : Constant
Bit rate                    : 384 kb/s
Channel(s)                  : 6 channels
Channel positions           : Front: L C R, Side: L R, LFE
Sampling rate               : 48.0 kHz
Frame rate                  : 31.250 FPS (1536 SPF)
Bit depth                   : 16 bits
Compression mode            : Lossy
Stream size                 : 355 MiB (7%)
Title                       : AC-3 English DD5.1
Language                    : English
Service kind                : Complete Main
Default                     : No
Forced                      : No

Menu
00:00:00.000                : en:Father s Curse
00:05:50.000                : en:"Arrest Him"
00:08:34.000                : en:Captain Salazar
00:13:40.000                : en:"Stop That Witch"
00:16:29.000                : en:Runaway Bank
00:22:34.000                : en:Bad Luck
00:25:19.000                : en:"Hidden In The Stars"
00:28:06.000                : en:"We Are Free"
00:31:41.000                : en:Blood Moon
00:33:44.000                : en:"Looking For A Pirate"
00:37:02.000                : en:Barbossa s Treasure
00:42:27.000                : en:"Final Words"
00:49:09.000                : en:"Cordiality"
00:54:00.000                : en:Bluffing
00:57:19.000                : en:"Closer Than You Think"
01:00:38.000                : en:Salazar s Story
01:08:30.000                : en:Mutiny
01:11:57.000                : en:Ghost Sharks
01:16:51.000                : en:"Unscratchable Itch"
01:19:27.000                : en:Wedding Day
01:25:04.000                : en:"Just Believe Her"
01:27:42.000                : en:"So You re An Orphan"
01:31:43.000                : en:"Nowhere To Hide"
01:38:22.000                : en:The Island
01:42:36.000                : en:Poseidon s Trident
01:47:23.000                : en:"All Must Divide"
01:52:58.000                : en:"Let Me Tell You A Tale"
01:59:10.000                : en:Credits

























ดาวน์โหลด


http://www.mekafile.com/dl.php?f=TJ390abuTkXx



Pirates.of.the.Caribbean.Dead.Men.Tell.No.Tales.2017.1080p.WEB-DL.ThaIRong5.1.H264_CpT@CtHts.mkv - 5.2 GB

 





https://www.blggames.com/forum/index.php