https://www.blggames.com/forum/index.php

ผู้เขียน หัวข้อ: [ฝรั่ง]-[ใหม่!!ภาพชัดไร้ซับฝัง] • [* 1080p.WEB-DL เสียงไทยโรง 5.1 ชัดแจ่ม *] Wonder Woman (2017) : วันเดอร์ วูแมน • [* WEB-DL.DD5.1.H.264.ThaiRong5.1 CpT@CtHts *] • [Sound ThaiRong AC-3/AAC 5.1 + English DD5.1] • [Modified] • [พากย์ไทยโรง]  (อ่าน 150 ครั้ง)

BlackLoad

  • Administrator
  • Hero Member
  • *****
  • กระทู้: 5928
    • ดูรายละเอียด
[ฝรั่ง]-[ใหม่!!ภาพชัดไร้ซับฝัง] • [* 1080p.WEB-DL เสียงไทยโรง 5.1 ชัดแจ่ม *]   Wonder Woman (2017) : วันเดอร์ วูแมน • [* WEB-DL.DD5.1.H.264.ThaiRong5.1 CpT@CtHts *] • [Sound ThaiRong AC-3/AAC 5.1 + English DD5.1] • [Modified] • [พากย์ไทยโรง]




ภาพยนตร์เปิดตัว ฮีโร่หญิงแถวหน้าทางฝั่งดีซี
สาวแกร่ง WONDER WOMAN จะออกมาเฉิดฉายในหนังเดี่ยวของตัวเอง!
••• 1080p.WEB-DL.DD5.1.H.264.ThaiRong5.1_CpT@CtHts •••
พากย์ไทยโรง AC-3/AAC 5.1 + เสียงอังกฤษ DD5.1



Wonder Woman ก่อนที่เธอจะกลายเป็นสาวน้อยมหัศจรรย์นามว่า Wonder Woman เธอคือ ไดอาน่า เจ้าหญิงแห่งอะเมซอนผู้ฝึกตนเป็นนักรบไร้พ่ายบนเกาะสวรรค์ (Paradise Island) ทว่าเมื่อเกิดเหตุเครื่องบินรบของกองทัพสหรัฐตกบริเวณชายฝั่งของเกาะ ทำให้เธอได้รู้เรื่องราวของมหาสงครามอันรุนแรงที่เกิดขึ้นในโลกภายนอก ไดอาน่าจึงตัดสินใจออกจากเกาะ ตั้งใจที่จะหยุดยั้งสงครามเหล่านี้ให้จงได้ มหากาพย์การต่อสู้เพื่อหยุดยั้งทุกสงคราม จะทำให้เธอค้นพบพลังที่แท้จริง และค้นพบเส้นทางชีวิตที่รอคอยเธออยู่เบื้องหน้าในอนาคต



F
โค๊ด: [Select]
ormat                      : Matroska
File size                   : 5.68 GiB
Duration                    : 2 h 21 min
Overall bit rate            : 5 756 kb/s
Movie name                  : Wonder.Woman.2017.1080p.WEB-DL.DD5.1.H.264.ThaiRong5.1_CpT@CtHts

Video
ID                          : 1
Format                      : AVC
Format/Info                 : Advanced Video Codec
Format profile              : High@L4
Format settings, CABAC      : Yes
Format settings, RefFrames  : 5 frames
Codec ID                    : V_MPEG4/ISO/AVC
Duration                    : 2 h 21 min
Bit rate                    : 4 537 kb/s
Width                       : 1 912 pixels
Height                      : 792 pixels
Display aspect ratio        : 2.40:1
Frame rate mode             : Constant
Frame rate                  : 23.976 (24000/1001) FPS
Color space                 : YUV
Chroma subsampling          : 4:2:0
Bit depth                   : 8 bits
Scan type                   : Progressive
Bits/(Pixel*Frame)          : 0.125
Stream size                 : 4.48 GiB (79%)
Title                       : Wonder.Woman.2017.1080p.WEB-DL.DD5.1.H.264.ThaiRong5.1_CpT@CtHts
Language                    : English
Default                     : Yes
Forced                      : No
Color range                 : Limited
Color primaries             : BT.709
Transfer characteristics    : BT.709
Matrix coefficients         : BT.709

Audio #1
ID                          : 2
Format                      : AC-3
Format/Info                 : Audio Coding 3
Format settings, Endianness : Big
Codec ID                    : A_AC3
Duration                    : 2 h 21 min
Bit rate mode               : Constant
Bit rate                    : 448 kb/s
Channel(s)                  : 6 channels
Channel positions           : Front: L C R, Side: L R, LFE
Sampling rate               : 48.0 kHz
Frame rate                  : 31.250 FPS (1536 SPF)
Bit depth                   : 16 bits
Compression mode            : Lossy
Stream size                 : 452 MiB (8%)
Title                       : AC-3 ThaiRong 5.1 By ~Mr.Captain~
Language                    : Thai
Service kind                : Complete Main
Default                     : Yes
Forced                      : No

Audio #2
ID                          : 3
Format                      : AAC
Format/Info                 : Advanced Audio Codec
Format profile              : Main
Codec ID                    : A_AAC
Duration                    : 2 h 21 min
Bit rate                    : 384 kb/s
Channel(s)                  : 6 channels
Channel positions           : Front: L C R, Side: L R, LFE
Sampling rate               : 48.0 kHz
Frame rate                  : 46.875 FPS (1024 SPF)
Compression mode            : Lossy
Stream size                 : 388 MiB (7%)
Title                       : AAC  ThaiRong 5.1 By ~Mr.Captain~
Language                    : Thai
Default                     : No
Forced                      : No

Audio #3
ID                          : 4
Format                      : AC-3
Format/Info                 : Audio Coding 3
Format settings, Endianness : Big
Codec ID                    : A_AC3
Duration                    : 2 h 21 min
Bit rate mode               : Constant
Bit rate                    : 384 kb/s
Channel(s)                  : 6 channels
Channel positions           : Front: L C R, Side: L R, LFE
Sampling rate               : 48.0 kHz
Frame rate                  : 31.250 FPS (1536 SPF)
Bit depth                   : 16 bits
Compression mode            : Lossy
Stream size                 : 388 MiB (7%)
Title                       : AC-3 English
Language                    : English
Service kind                : Complete Main
Default                     : No
Forced                      : No

Menu
00:00:00.000                : en:1
00:10:24.000                : en:2
00:23:10.000                : en:3
00:33:08.000                : en:4
00:43:53.000                : en:5
00:54:23.000                : en:6
01:07:36.000                : en:7
01:22:28.000                : en:8
01:34:00.000                : en:9
01:45:35.000                : en:10
01:57:41.000                : en:11
02:10:38.000                : en:12







ดาวน์โหลด


http://www.mekafile.com/dl.php?f=bE4596buF5Mu



http://cornfile.com/d8mjhqn7h113

« แก้ไขครั้งสุดท้าย: 02 กันยายน 2017 @22:26:59 น. โดย BlackLoad »

 





https://www.blggames.com/forum/index.php